DNS SERVER ÄNDERN, um der staatlichen Zensur zu entgehen. Sollten wir von eurem Provider gesperrt werden, nutzt den TOR BROWSER oder ändert euren DNS SERVER.

Filmwünsche können bei uns im Forum abgegeben werden

Wir Speichern Nicht




 
 
 
Top Releases
The.Unthinkable.Die.unbekann...
Polar.2019.German.DL.1080p.W...
Bachelors.Der.Weg.zurueck.in...
Bachelors.Der.Weg.zurueck.in...
Bachelors.Der.Weg.zurueck.in...
Die.Unglaublichen.2.2018.MUL...
Gundermann.2018.GERMAN.COMPL...
Western.2017.German.1080p.Bl...
Western.2017.German.720p.Blu...
303.German.1080p.BluRay.x264...

Cinedubs
Climax.2018.German.Dubbed.AC...
Der.Grinch.2018.German.AC3LD...
Der.Grinch.2018.German.AC3LD...
Aquaman.2018.German.DL.AC3.D...
Aquaman.2018.German.DL.AC3.D...
Siberia.2018.German.AC3D.WEB...
Siberia.2018.German.AC3D.WEB...
Climax.2018.German.DL.AC3.10...
Climax.2018.German.DL.AC3.72...
Mortal.Engines.Krieg.der.Sta...

Neuerscheinungen 2018-19
House.of.Purgatory.2016.GERM...
Alien.Expedition.Voyage.Into...
Anne.Der.Fluch.der.Puppen.20...
Anne.Der.Fluch.der.Puppen.20...
In.einem.Jahr.mit.13.Monden....
Animas.2018.German.1080p.WEB...
Animas.2018.German.720p.WEBR...
Gundermann.2018.GERMAN.1080p...
Air.Strike.2018.German.DL.10...
House.of.Purgatory.2016.GERM...

XXX
OyeLoca.19.01.13.Anainda.Has...
PornMegaLoad.19.01.11.Diamon...
MonstersOfCock.19.01.13.Anal...
MomPov.E447.Tracie.XXX.1080p...
Private.Best.Of.Erika.Belluc...
BangBus.19.01.09.Kayla.Paris...
ClubSeventeen.19.01.09.Jessy...
BuccWild.18.04.26.Ebony.Ride...
RodneyMoore.19.01.11.Kristy....
JeshByJesh.19.01.10.Isabelle...
OralOverdose.19.01.10.Fallon...
ConorCoxxx.19.01.11.Stephani...
Hitzefrei.19.01.11.Anissa.Ka...
CzechCasting.19.01.10.Patric...
ErotiqueTVLive.18.08.23.Fall...
BuccWild.18.04.16.Kristy.Ama...
PlumperPass.19.01.09.Betty.B...
ErotiqueTVLive.18.08.18.Kyli...
MomPov.E433.Harley.XXX.1080p...
WankItNow.19.01.12.Tindra.Fr...

3D
Die.Reise.zum.Mittelpunkt.de...
Die.Reise.zum.Mittelpunkt.de...
Die.Reise.zum.Mittelpunkt.de...
Kaluoka.Hina.Das.Zauberriff....
Blade.Runner.2049.3D.2017.Ge...
Walhalla.Rising.3D.2009.DUAL...
Sleepwalker.3D.2011.DUAL.COM...
Bis.an.die.Grenzen.des.Unive...
Best.of.3D.vol.13.-.15.GERMA...
Limbradur.und.die.Magie.der....
Kaluoka.Hina.Das.Zauberriff....
Limbradur.und.die.Magie.der....
Smallfoot.3D.2018.COMPLETE.B...
Smallfoot.Ein.eisigartiges.A...
Skyscraper.3D.2018.German.DL...

Old_Stuff
Ip.Man.2.2010.German.DTS.108...
Todfreunde.aka.Bad.Influence...
Animatrix.2003.German.DL.108...
Animatrix.2003.German.DL.720...
Akte.X.S06.German.DTS.DL.108...
The.Beauty.of.Gemina.Minor.S...
ZZ.Top.Live.from.Texas.2008....
Peter.Hase.2018.German.DL.10...
Akte.X.S05.German.DTS.DL.108...
Akte.X.S04.German.DTS.DL.108...
Akte.X.S03.German.DTS.DL.108...
Dunkirk.1958.COMPLETE.BLURAY...
Das.Wunder.von.Manhattan.199...
The.Amazing.Spiderman.2.Rise...
Rise.of.the.Predator.2014.Ge...

Filme
Two.and.a.half.Men.S03.COMPL...
Two.and.a.half.Men.S04.Germa...
Critters.2.1988.German.AC3D....
Antarctica.-.Gefangen.im.Eis...
187.Eine.toedliche.Zahl.1997...
Haus.der.Todsuenden.UNCUT.19...
Sugarland.Express.1974.Germa...
Kopfgeld.1996.German.DL.1080...
Oblivion.2013.German.DTS.DL....
Phantastische.Tierwesen.und....
Goodbye.Lover.1998.German.10...
Helden.aus.der.zweiten.Reihe...
Z.Nation.S04D01-4.MULTi.COMP...
Der.rasende.Gockel.1983.Germ...
Der.rasende.Gockel.1983.Germ...
Luetzower.1972.German.1080p....
Luetzower.1972.German.720p.W...
Ein.Goldfisch.an.der.Leine.1...
Ein.Goldfisch.an.der.Leine.1...
Ein.Single.kommt.selten.alle...
Star.Trek.Discovery.S02.Germ...
Star.Trek.Discovery.S02.Germ...
Die.Conners.S01.German.DD51....
Die.Conners.S01.German.DD51....

 
 
Alien.Expedition.Voyage.Into.Fear.2018.GERMAN.720p.BluRay.x264-UNiVERSUM

Jahr: 2018
Genre: Sci-Fi
Sprache: Deutsch DTS
Laufzeit: 1h 34mn
Bitrate: 4 302 Kbps
Format: MKV
Größe: 2.84 GiB
Release:

Beschreibung:

Ein Erkundungsteam aus Menschen und Androiden wird zu einem weit entfernten Planeten geschickt. Ihre Aufgabe: die Ressourcen des Planeten zu untersuchen. Angeführt wird die Mannschaft vom unerfahrenen Major Mason, der sich als fähiger Teamchef beweisen möchte.
Schnell muss die Besatzung feststellen, dass sie dort nicht alleine ist. Von den außerirdischen Lebensformen des Planeten geht eine tödliche Gefahr aus!



Complete name                            : alien.expedition.voyage.into.fear.2018.german.720p.bluray.x264-universum.mkv
Format                                   : Matroska
Format version                           : Version 4 / Version 2
File size                                : 2.84 GiB
Duration                                 : 1h 34mn
Overall bit rate                         : 4 302 Kbps
Encoded date                             : UTC 2019-01-25 13:35:14
Writing application                      : mkvmerge v7.9.0 ('Birds') 64bit
Writing library                          : libebml v1.3.1 + libmatroska v1.4.2
DURATION                                 : 01:21:36.058000000
NUMBER_OF_FRAMES                         : 16
NUMBER_OF_BYTES                          : 602
_STATISTICS_WRITING_APP                  : mkvmerge v7.9.0 ('Birds') 64bit
_STATISTICS_WRITING_DATE_UTC             : 2019-01-25 13:35:14
_STATISTICS_TAGS                         : BPS DURATION NUMBER_OF_FRAMES NUMBER_OF_BYTES

Video
ID                                       : 1
Format                                   : AVC
Format/Info                              : Advanced Video Codec
Format profile                           : High@L4.1
Format settings, CABAC                   : Yes
Format settings, ReFrames                : 5 frames
Codec ID                                 : V_MPEG4/ISO/AVC
Duration                                 : 1h 34mn
Bit rate                                 : 2 708 Kbps
Width                                    : 1 280 pixels
Height                                   : 544 pixels
Display aspect ratio                     : 2.35:1
Frame rate mode                          : Constant
Frame rate                               : 23.976 fps
Color space                              : YUV
Chroma subsampling                       : 4:2:0
Bit depth                                : 8 bits
Scan type                                : Progressive
Bits/(Pixel*Frame)                       : 0.162
Stream size                              : 1.79 GiB (63%)
Writing library                          : x264 core 157 r2935 545de2f
Encoding settings                        : cabac=1 / ref=5 / deblock=1:-1:-1 / analyse=0x3:0x133 / me=umh / subme=8 / psy=1 / psy_rd=1.00:0.15 / mixed_ref=1 / me_range=16 / chroma_me=1 / trellis=2 / 8x8dct=1 / cqm=0 / deadzone=21,11 / fast_pskip=0 / chroma_qp_offset=-3 / threads=12 / lookahead_threads=2 / sliced_threads=0 / nr=0 / decimate=1 / interlaced=0 / bluray_compat=0 / constrained_intra=0 / bframes=3 / b_pyramid=2 / b_adapt=1 / b_bias=0 / direct=3 / weightb=1 / open_gop=0 / weightp=2 / keyint=250 / keyint_min=23 / scenecut=40 / intra_refresh=0 / rc_lookahead=40 / rc=crf / mbtree=1 / crf=20.0 / qcomp=0.60 / qpmin=10 / qpmax=69 / qpstep=4 / ip_ratio=1.40 / aq=1:1.00
Language                                 : German
Default                                  : Yes
Forced                                   : No
DURATION                                 : 01:34:23.950000000
NUMBER_OF_FRAMES                         : 135799
NUMBER_OF_BYTES                          : 1976156726
_STATISTICS_WRITING_APP                  : mkvmerge v7.9.0 ('Birds') 64bit
_STATISTICS_WRITING_DATE_UTC             : 2019-01-25 13:35:14
_STATISTICS_TAGS                         : BPS DURATION NUMBER_OF_FRAMES NUMBER_OF_BYTES

Audio
ID                                       : 2
Format                                   : DTS
Format/Info                              : Digital Theater Systems
Mode                                     : 16
Format settings, Endianness              : Big
Codec ID                                 : A_DTS
Duration                                 : 1h 34mn
Bit rate mode                            : Constant
Bit rate                                 : 1 509 Kbps
Channel(s)                               : 6 channels
Channel positions                        : Front: L C R, Side: L R, LFE
Sampling rate                            : 48.0 KHz
Bit depth                                : 24 bits
Compression mode                         : Lossy
Stream size                              : 1 019 MiB (35%)
Title                                    : DTS
Language                                 : German
Default                                  : Yes
Forced                                   : No

Text
ID                                       : 3
Format                                   : UTF-8
Codec ID                                 : S_TEXT/UTF8
Codec ID/Info                            : UTF-8 Plain Text
Title                                    : Forced
Language                                 : German
Default                                  : Yes
Forced                                   : No


Screenshots:


Download:
Share Online Share OnlineShare OnlineShare Online
 

Kommentare