Filecrypt zeigt vereinzelt Files als "n/a". Die Downloads sind trotzdem komplett.

DNS SERVER AENDERNum der staatlichen Zensur zu umgehen. Sollten wir von eurem Provider geseprrt werden, nutzt den TOR BROWSER oder ändert euren DNS SERVER.

Filmwünsche können bei uns im Forum abgegeben werden

Wir Speichern Nicht




 
 
 
Top Releases
Oceans.8.2018.DUAL.COMPLETE....
Oceans.8.2018.German.DL.1080...
Meg.German.DL.AC3.Dubbed.720...
Meg.German.DL.AC3.Dubbed.108...
Film.Stars.Dont.Die.in.Liver...
Film.Stars.Dont.Die.in.Liver...
In.den.Gaengen.2018.German.1...
Die.Unglaublichen.2.German.D...
Prinz.Charming.2018.German.A...
Die.Unglaublichen.2.German.D...

Cinedubs
Mission.Impossible.Fallout.2...
Mission.Impossible.Fallout.2...
BlacKkKlansman.2018.German.A...
BlacKkKlansman.2018.German.A...
Mandy.2018.German.AC3MD.DL.7...
Mandy.2018.German.AC3MD.DL.1...
The.Guilty.2018.German.AC3MD...
The.Guilty.2018.German.AC3MD...
Der.Affront.2017.GERMAN.AC3....
Der.Affront.2017.GERMAN.AC3....

Neuerscheinungen 2017-18
Mercy.Christmas.2017.COMPLET...
Papst.Franziskus.Pope.Franci...
Herrliche.Zeiten.2018.GERMAN...
Oceans.8.German.DL.1080p.Blu...
Oceans.8.German.DL.720p.BluR...
Papst.Franziskus.Ein.Mann.se...
Herrliche.Zeiten.German.720p...
Herrliche.Zeiten.German.1080...
Zeugin.der.Anklage.Witness.f...
Verborgenes.Indien.Land.des....

XXX
SweetheartVideo.18.10.16.Car...
WeLiveTogether.18.10.14.Vero...
WhiteGhetto.18.10.16.Victori...
SweetSinner.The.Babysitter.1...
ThirdMovies.Cum.Swapping.Ste...
Teenikini.E62.Kendra.Spade.A...
TabooPOV.18.10.12.Sara.St.Cl...
WildOnCam.18.10.15.Addison.L...
TeensDoPorn.18.10.15.Madison...
TheLifeErotic.18.10.16.Sofia...
Swallowed.18.10.13.Valentina...
Spizoo.18.10.17.Karma.RX.And...
WoodmanCastingX.18.06.24.Lil...
Swallowed.18.10.18.Khloe.Kap...
Submissived.18.10.15.Rharri....
TabooPOV.18.10.09.Alex.More....
TeensLoveToSwallow.Shae.XXX....
Yanks.18.10.13.Katrina.P.Fin...
WetAndPuffy.18.10.17.Antonia...
Yanks.18.10.15.Shay.Big.Cum....

3D
Die.Unglaublichen.2.3D.2018....
Die.Unglaublichen.2.2018.3D....
Die.Unglaublichen.2.2018.3D....
Sharknado.6.The.Last.One.3D....
Deep.Kleine.Helden.der.Tiefs...
Deep.3D.2017.MULTI.COMPLETE....
Detective.Dee.und.die.Legend...
Detective.Dee.und.die.Legend...
Skyscraper.3D.German.DL.AC3....
Ant-Man.and.the.Wasp.2018.3D...
Jurassic.World.Das.gefallene...
Jurassic.World.Das.gefallene...
Best.of.3D.vol.10.-.12.GERMA...
Die.Biene.Maja.2.Die.Honigsp...
Sharknado.6.The.Last.One.3D....

Old_Stuff
Species.IV.Das.Erwachen.2007...
Species.IV.Das.Erwachen.2007...
Hotel.Transsilvanien.2012.Ge...
The.Dead.2010.German.DL.1080...
The.Dead.2.India.2013.German...
Britney.Spears.Live.The.Femm...
Buffy.The.Vampire.Slayer.199...
IMAX.Ride.Around.The.World.2...
Schimanski.-.Duisburg.Ruhror...
Akte.X.S02.German.DTS.DL.108...
How.I.Met.Your.Mother.S02.Ge...
Akte.X.S01.German.DTS.DL.108...
Den.Himmel.gibts.echt.DL.108...
Vikings.S02.German.DL.1080p....
Be.Kind.Rewind.Abgedreht.200...

Filme
The.Walking.Dead.S08.German....
The.Walking.Dead.S08.German....
Young.Sheldon.S01.GERMAN.DUB...
Young.Sheldon.S01.GERMAN.DUB...
The.Last.Ship.S05.GERMAN.DUB...
The.Last.Ship.S05.GERMAN.DUB...
Hobo.with.a.Shotgun.2011.Ger...
Heiter.bis.wolkig.German.108...
The.Square.Ein.toedlicher.Pl...
The.Stendhal.Syndrome.German...
The.Straight.Story.1999.Germ...
The.Strangers.German.DL.1080...
Spieltrieb.2013.German.1080p...
Und.weg.bist.du.2012.German....
Dragon.Tiger.Gate.2006.Germa...
Der.Geschmack.von.Apfelkerne...
The.Streets.Of.London.2008.G...
The.Sunset.Limited.2011.GERM...
Code.Name.The.Cleaner.German...
Caged.2010.German.1080p.BluR...
Jagd.auf.einen.Unsichtbaren....
Extrem.mit.allen.Mitteln.199...
Aus.dem.Dschungel.in.den.Dsc...
Oceans.8.2018.German.Dubbed....

 
 
The.Walking.Dead.S08.German.DL.1080p.BluRay.x264-iNTENTiON

Jahr: 2017
Genre: Drama | Horror | Thriller
Sprache: Deutsch DTS | Englisch DTS
Laufzeit: 45min je Folge
Bitrate: 10 Mbps
Format: MKV
Größe: 4,5 GB je Folge
Release:

Beschreibung:

Die US-Serie "The Walking Dead" ist eine Adaption der gleichnamigen Comicbuchreihe von Robert Kirkman. Darin geht es um eine Gruppe von Menschen, die nach der Apokalypse als letzte Überlebende in einer Welt bestehen muss, die von Zombies bevölkert wird. Im Mittelpunkt der Serie steht der Polizist Rick Grimes, der für sich und seine Mitstreiter eine sichere Zuflucht sucht.

 

bisher enthalten Folge 1



General
Complete name                            : The.Walking.Dead.S08E01.German.DL.1080p.BluRay.x264-iNTENTiON\the.walking.dead.s08e01.german.dl.1080p.bluray.x264-intention.mkv
Format                                   : Matroska
Format version                           : Version 2
File size                                : 4.39 GiB
Duration                                 : 47mn 14s
Overall bit rate                         : 13.3 Mbps
Writing application                      : mkvmerge v6.6.0 ('The Edge Of The In Between') built on Dec 1 2013 17:55:00
Writing library                          : libebml v1.3.0 + libmatroska v1.4.1

Video
ID                                       : 1
Format                                   : AVC
Format/Info                              : Advanced Video Codec
Format profile                           : High@L4.1
Format settings, CABAC                   : Yes
Format settings, ReFrames                : 4 frames
Codec ID                                 : V_MPEG4/ISO/AVC
Duration                                 : 47mn 14s
Bit rate                                 : 10.3 Mbps
Width                                    : 1 920 pixels
Height                                   : 1 080 pixels
Display aspect ratio                     : 16:9
Frame rate mode                          : Constant
Frame rate                               : 23.976 fps
Color space                              : YUV
Chroma subsampling                       : 4:2:0
Bit depth                                : 8 bits
Scan type                                : Progressive
Bits/(Pixel*Frame)                       : 0.207
Stream size                              : 3.31 GiB (75%)
Writing library                          : x264 core 155 r2901 7d0ff22
Encoding settings                        : cabac=1 / ref=4 / deblock=1:0:0 / analyse=0x3:0x113 / me=umh / subme=8 / psy=1 / psy_rd=1.00:0.00 / mixed_ref=1 / me_range=16 / chroma_me=1 / trellis=2 / 8x8dct=1 / cqm=0 / deadzone=21,11 / fast_pskip=1 / chroma_qp_offset=-2 / threads=34 / lookahead_threads=5 / sliced_threads=0 / nr=0 / decimate=1 / interlaced=0 / bluray_compat=0 / constrained_intra=0 / bframes=3 / b_pyramid=2 / b_adapt=1 / b_bias=0 / direct=3 / weightb=1 / open_gop=0 / weightp=2 / keyint=250 / keyint_min=23 / scenecut=40 / intra_refresh=0 / rc_lookahead=50 / rc=2pass / mbtree=1 / bitrate=10294 / ratetol=1.0 / qcomp=0.60 / qpmin=0 / qpmax=69 / qpstep=4 / cplxblur=20.0 / qblur=0.5 / ip_ratio=1.40 / aq=1:1.00
Language                                 : English
Default                                  : Yes
Forced                                   : No

Audio #1
ID                                       : 2
Format                                   : DTS
Format/Info                              : Digital Theater Systems
Mode                                     : 16
Format settings, Endianness              : Big
Codec ID                                 : A_DTS
Duration                                 : 47mn 14s
Bit rate mode                            : Constant
Bit rate                                 : 1 509 Kbps
Channel(s)                               : 6 channels
Channel positions                        : Front: L C R, Side: L R, LFE
Sampling rate                            : 48.0 KHz
Bit depth                                : 24 bits
Compression mode                         : Lossy
Stream size                              : 510 MiB (11%)
Language                                 : German
Default                                  : Yes
Forced                                   : No

Audio #2
ID                                       : 3
Format                                   : DTS
Format/Info                              : Digital Theater Systems
Mode                                     : 16
Format settings, Endianness              : Big
Codec ID                                 : A_DTS
Duration                                 : 47mn 14s
Bit rate mode                            : Constant
Bit rate                                 : 1 509 Kbps
Channel(s)                               : 6 channels
Channel positions                        : Front: L C R, Side: L R, LFE
Sampling rate                            : 48.0 KHz
Bit depth                                : 24 bits
Compression mode                         : Lossy
Stream size                              : 510 MiB (11%)
Language                                 : English
Default                                  : Yes
Forced                                   : No

Text
ID                                       : 4
Format                                   : UTF-8
Codec ID                                 : S_TEXT/UTF8
Codec ID/Info                            : UTF-8 Plain Text
Language                                 : German
Default                                  : Yes
Forced                                   : Yes

Menu
00:00:00.000                             : en:00:00:00.000
00:07:20.607                             : en:00:07:20.607
00:12:55.441                             : en:00:12:55.441
00:18:01.080                             : en:00:18:01.080
00:25:52.593                             : en:00:25:52.593
00:33:45.190                             : en:00:33:45.190
00:39:45.216                             : en:00:39:45.216
00:46:33.749                             : en:00:46:33.749



Download:
Share-Online.biz Share-Online.bizShare-Online.bizShare-Online.biz | Rapidgator.net Rapidgator.netRapidgator.netRapidgator.net
 

Kommentare