DNS SERVER AENDERNum der staatlichen Zensur zu umgehen. Sollten wir von eurem Provider geseprrt werden, nutzt den TOR BROWSER oder ändert euren DNS SERVER.

Filmwünsche können bei uns im Forum abgegeben werden

Wir Speichern Nicht




 
 
 
Top Releases
Die.Spur.2017.GERMAN.DUAL.CO...
Im.Zweifel.gluecklich.2017.G...
Deadpool.2.Super.Duper.Cut.2...
Diplomatie.2014.German.AC3.1...
Die.Spur.2017.GERMAN.1080p.B...
Die.Spur.2017.GERMAN.720p.Bl...
Ataris.Reise.2018.German.DL....
Ataris.Reise.2018.German.720...
Stronger.2017.German.DL.1080...
Stronger.2017.German.720p.Bl...

Cinedubs
The.Equalizer.2.TS.LD.German...
Der.Hauptmann.2017.German.AA...
Der.Hauptmann.2017.German.AA...
Ghost.Stories.2017.German.AC...
Ghost.Stories.2017.German.AC...
Oceans.8.German.DL.AC3.Dubbe...
Oceans.8.German.DL.AC3.Dubbe...
Hereditary.Das.Vermaechtnis....
Hereditary.Das.Vermaechtnis....
Oceans.8.2018.German.DL.AC3D...

Neuerscheinungen 2017-18
Wie.das.Leben.so.spielt.Funn...
Gewalt.und.Leidenschaft.Conv...
Chatos.Land.1972.MULTi.COMPL...
No.Good.Deed.2002.MULTI.COMP...
Hot.Dog.2018.German.AC3.1080...
Luna.2017.German.AC3.1080p.B...
Die.Gesetze.der.Thermodynami...
Die.Gesetze.der.Thermodynami...
Kings.2017.German.720p.BluRa...
Kings.2017.German.DL.1080p.B...

XXX
Bang.Glamkore.18.07.05.Linda...
Cosmid.18.07.06.Ivy.Jane.Ivy...
BrattySis.18.07.06.Lexi.Lore...
CastingCouch-HD.18.06.29.Lil...
1000Facials.18.08.27.Alura.J...
CherryPimps.18.08.27.Charlot...
AGirlKnows.18.07.05.Lexi.Don...
ClubSeventeen.18.07.05.Viole...
BigGulpGirls.18.08.21.Lacy.C...
Analized.18.07.05.Candace.Da...
CastingCouch-HD.18.06.22.Cal...
Beauty-Angels.18.07.05.Alex....
AllOver30.18.08.27.Victoria....
Babes.18.07.05.Jessa.Rhodes....
Bang.Confessions.18.07.06.Br...
BrownBunnies.18.07.06.Lola.C...
AllOver30.18.07.06.Georgie.L...
BadDaddyPOV.18.07.06.Kinsley...
AllOver30.18.07.05.Kamila.XX...
BigGulpGirls.18.08.25.Alex.C...

3D
Avengers.Infinity.War.3D.201...
Rampage.Big.Meets.Bigger.3D....
Rampage.Big.Meets.Bigger.3D....
Rampage.Big.Meets.Bigger.3D....
Winter.Games.3D.2013.DUAL.CO...
Tomb.Raider.3D.2018.German.7...
Rampage.Big.Meets.Bigger.3D....
Rampage.Big.Meets.Bigger.3D....
Tomb.Raider.3D.2018.MULTi.CO...
Pacific.Rim.Uprising.3D.2018...
Ready.Player.One.3D.2018.Ger...
Rampage.-.Big.Meets.Bigger.2...
Ready.Player.One.2018.3D.HOU...
Ready.Player.One.2018.3D.HSB...
Ready.Player.One.3D.2018.MUL...

Old_Stuff
Vikings.S02.German.DL.1080p....
Be.Kind.Rewind.Abgedreht.200...
Be.Kind.Rewind.Abgedreht.200...
Dracula.The.Dark.Lord.2012.G...
21.2008.German.DL.1080p.BluR...
Achtung.fertig.WK.Swissgerma...
The.Ouija.Exorcism.2015.MULT...
Meine.liebe.Rabenmutter.germ...
Da.Vincis.Demons.S01.Complet...
Eragon.Das.Vermaechtnis.der....
Adele.und.das.Geheimnis.des....
Die.fabelhafte.Welt.der.Amel...
Haus.des.Geldes.S01.German.M...
How.I.Met.Your.Mother.S01.Ge...
The.Dark.Knight.Rises.2012.M...

Filme
Lets.Kill.Wards.Wife.2014.Ge...
Liberal.Arts.2012.German.DL....
Hardkor.Disko.2014.German.10...
Jinn.2014.German.DL.1080p.Bl...
The.5th.Commandment.Du.solls...
Keanu.Her.mit.dem.Kaetzchen....
Little.Devil.2014.German.DL....
Jesse.James.Mann.ohne.Gesetz...
Der.Mandant.2011.German.DL.1...
Kopfueber.in.Amerika.1985.BD...
Abandon.-.Ein.moerderisches....
The.End.2017.German.DTS-HD.D...
Vater.des.Jahres.2018.German...
Save.The.Last.Dance.2001.GER...
Die.Stewardessen.Academy.198...
Der.Anschlag.2002.German.AC3...
Jackie.Brown.1997.Special.Ed...
Origin.Unknown.2018.German.D...
Cradle.of.Fear.2001.MULTi.CO...
The.Flash.2014.S04.GERMAN.72...
Supergirl.S03.COMPLETE.GERMA...
Gotham.S04.GERMAN.720p.HDTV....
Paradise.PD.S01.COMPLETE.Ger...
Hot.Tub.Der.Whirlpool.ist.ne...

 
 
The.Walking.Dead.S07.COMPLETE.German.DL.1080p.BluRay.x264-EXCiTED

Jahr: 2016
Genre: Drama | Horror | Thriller
Sprache: Deutsch DTS | Englisch DTS
Laufzeit: 46min je Folge
Bitrate: 10 Mbps
Format: MKV
Größe: 4,5 GB je Folge
Release:

Beschreibung:

Die US-Serie "The Walking Dead" ist eine Adaption der gleichnamigen Comicbuchreihe von Robert Kirkman. Darin geht es um eine Gruppe von Menschen, die nach der Apokalypse als letzte Überlebende in einer Welt bestehen muss, die von Zombies bevölkert wird. Im Mittelpunkt der Serie steht der Polizist Rick Grimes, der für sich und seine Mitstreiter eine sichere Zuflucht sucht.



General
Complete name                            : The.Walking.Dead.S07E01.German.DL.1080p.BluRay.x264-EXCiTED\the.walking.dead.s07e01.german.dl.1080p.bluray.x264-excited.mkv
Format                                   : Matroska
Format version                           : Version 2
File size                                : 4.20 GiB
Duration                                 : 46mn 6s
Overall bit rate                         : 13.0 Mbps
Writing application                      : mkvmerge v4.1.1 ('Bouncin' Back') built on Jul  3 2010 22:54:08
Writing library                          : libebml v1.0.0 + libmatroska v1.0

Video
ID                                       : 1
Format                                   : AVC
Format/Info                              : Advanced Video Codec
Format profile                           : High@L4.1
Format settings, CABAC                   : Yes
Format settings, ReFrames                : 4 frames
Codec ID                                 : V_MPEG4/ISO/AVC
Duration                                 : 46mn 6s
Bit rate                                 : 10.0 Mbps
Width                                    : 1 920 pixels
Height                                   : 1 080 pixels
Display aspect ratio                     : 16:9
Frame rate mode                          : Constant
Frame rate                               : 23.976 fps
Color space                              : YUV
Chroma subsampling                       : 4:2:0
Bit depth                                : 8 bits
Scan type                                : Progressive
Bits/(Pixel*Frame)                       : 0.201
Stream size                              : 3.14 GiB (75%)
Writing library                          : x264 core 152 r2851 ba24899
Encoding settings                        : cabac=1 / ref=4 / deblock=1:-3:-3 / analyse=0x3:0x113 / me=umh / subme=8 / psy=1 / psy_rd=1.00:0.15 / mixed_ref=1 / me_range=16 / chroma_me=1 / trellis=2 / 8x8dct=1 / cqm=0 / deadzone=21,11 / fast_pskip=0 / chroma_qp_offset=-3 / threads=24 / lookahead_threads=4 / sliced_threads=0 / nr=0 / decimate=1 / interlaced=0 / bluray_compat=0 / constrained_intra=0 / bframes=3 / b_pyramid=2 / b_adapt=1 / b_bias=0 / direct=3 / weightb=1 / open_gop=0 / weightp=2 / keyint=240 / keyint_min=23 / scenecut=40 / intra_refresh=0 / rc_lookahead=50 / rc=2pass / mbtree=1 / bitrate=10016 / ratetol=1.0 / qcomp=0.60 / qpmin=10 / qpmax=69 / qpstep=4 / cplxblur=20.0 / qblur=0.5 / ip_ratio=1.40 / aq=1:1.00
Language                                 : English
Default                                  : Yes
Forced                                   : No

Audio #1
ID                                       : 2
Format                                   : DTS
Format/Info                              : Digital Theater Systems
Mode                                     : 16
Format settings, Endianness              : Big
Codec ID                                 : A_DTS
Duration                                 : 46mn 6s
Bit rate mode                            : Constant
Bit rate                                 : 1 509 Kbps
Channel(s)                               : 6 channels
Channel positions                        : Front: L C R, Side: L R, LFE
Sampling rate                            : 48.0 KHz
Bit depth                                : 16 bits
Compression mode                         : Lossy
Stream size                              : 498 MiB (12%)
Language                                 : German
Default                                  : Yes
Forced                                   : No

Audio #2
ID                                       : 3
Format                                   : DTS
Format/Info                              : Digital Theater Systems
Mode                                     : 16
Format settings, Endianness              : Big
Codec ID                                 : A_DTS
Duration                                 : 46mn 6s
Bit rate mode                            : Constant
Bit rate                                 : 1 509 Kbps
Channel(s)                               : 6 channels
Channel positions                        : Front: L C R, Side: L R, LFE
Sampling rate                            : 48.0 KHz
Bit depth                                : 16 bits
Compression mode                         : Lossy
Stream size                              : 498 MiB (12%)
Language                                 : English
Default                                  : No
Forced                                   : No

Text
ID                                       : 4
Format                                   : UTF-8
Codec ID                                 : S_TEXT/UTF8
Codec ID/Info                            : UTF-8 Plain Text
Language                                 : German
Default                                  : Yes
Forced                                   : Yes

Menu
00:00:00.000                             : en:00:00:00.000
00:04:50.665                             : en:00:04:50.665
00:10:33.716                             : en:00:10:33.716
00:14:07.680                             : en:00:14:07.680
00:19:29.751                             : en:00:19:29.751
00:28:39.300                             : en:00:28:39.300
00:34:07.045                             : en:00:34:07.045
00:42:00.059                             : en:00:42:00.059



Download:
Share-Online.biz Share-Online.bizShare-Online.bizShare-Online.biz | Rapidgator.net Rapidgator.netRapidgator.netRapidgator.net
 

Kommentare

  1. Geschrieben am 13. November 2017, 00:07 Uhr von Kaldrar · #

    Bin ich der einzige, bei dem bei Folge 5 das Bild stehen bleibt, aber der Ton weiter läuft?